W:O:A 2009 im Rockpalast

Dieses Thema im Forum "W:O:A 2009<br>Lob & Kritik / praise & criticism" wurde erstellt von no.human.being, 06. August 2009.

  1. decembersoul

    decembersoul W:O:A Metalhead

    Registriert seit:
    12. Mai 2005
    Beiträge:
    1.079
    Zustimmungen:
    0
    dvb-s von WDR Aachen

    Code:
         Stream #0.0[0x1e0]: Video: mpeg2video, yuv420p, 720x576 [PAR 64:45 DAR 16:9], 9000 kb/s, 25.00 tb(r)
        Stream #0.1[0x1c1]: Audio: mp2, 48000 Hz, stereo, 192 kb/s
        Stream #0.2[0x1c0]: Audio: mp2, 48000 Hz, stereo, 192 kb/s
    
     
  2. no.human.being

    no.human.being W:O:A Metalhead

    Registriert seit:
    16. August 2008
    Beiträge:
    3.583
    Zustimmungen:
    0
    Hier die "Setlist" vom Rockpalast-Mitschnitt.

     
  3. harry1980

    harry1980 W:O:A Metalhead

    Registriert seit:
    03. November 2003
    Beiträge:
    3.968
    Zustimmungen:
    65
    achso,ja dann,haben die wohl auch ne Genehmigung dafür
     
  4. Wackentom

    Wackentom W:O:A Metalmaster

    Registriert seit:
    05. April 2005
    Beiträge:
    33.342
    Zustimmungen:
    805
    stimmt nicht ganz..auch die Kabelnetze haben "Einspeisknoten" und diese sind grosse Schüsseln..ok die sind nit soooo witterungsempfindlich wie "unsere" kleinen schüsseln aber auch da kann es Wetterstörungen geben..:o

    und inzwischen gibt es schon günstige "Zimmer-Schüsseln" wenn man wegen Vermietern keine Schüssel aufhängen darf.
    Mir wäre Kabel zu teuer...;)
     
  5. harry1980

    harry1980 W:O:A Metalhead

    Registriert seit:
    03. November 2003
    Beiträge:
    3.968
    Zustimmungen:
    65
    Stimmt ,aber letztendlich ist jede Form der Übertragung irgendwo Wetterabhängig.Egal ob DVB-T,DVB-S oder DVB-C
     
    Zuletzt bearbeitet: 29. September 2009
  6. M4D

    M4D W:O:A Metalhead

    Registriert seit:
    06. Januar 2009
    Beiträge:
    1.081
    Zustimmungen:
    0
    ist es irgendwo anzusehn wenn man es verpasst und net aufgenommen hat oder zum laden... ich würde demjenigen auch einen goldenen dino in bronze aus grünem plastik überreichen der es eventuell hochlädt :o


    die würd ich schon gerne sehen... ich danke im vorraus (könnt auch ne pm an mich schreiben)
     
  7. avengersrage

    avengersrage Member

    Registriert seit:
    13. Dezember 2005
    Beiträge:
    54
    Zustimmungen:
    0
    @M4D
    Du hast Post. ;)
     
  8. M4D

    M4D W:O:A Metalhead

    Registriert seit:
    06. Januar 2009
    Beiträge:
    1.081
    Zustimmungen:
    0
    dank dir und auch den anderen^^ ich gucke mal welche links alle funzen;)
     
  9. Zakgasa

    Zakgasa Newbie

    Registriert seit:
    22. September 2006
    Beiträge:
    21
    Zustimmungen:
    0
    dürfte ich auch bitte Post erhalten? :)

    Oder lädt jemand die Sendung auf Youtube o.Ä. hoch?
     
  10. MetalSmily

    MetalSmily W:O:A Metalhead

    Registriert seit:
    10. Mai 2009
    Beiträge:
    338
    Zustimmungen:
    0
    Ich will auch Post...Möglichst mit nen Tip wo ich die Sendung downloaden kann...Habe es leider verpasst.
    Rock On..
     
  11. Wacken-Jansono

    Wacken-Jansono Member

    Registriert seit:
    07. Mai 2009
    Beiträge:
    76
    Zustimmungen:
    0
    http://www.relink.us/f/8bd1cdf9fde7471ac8810f173082b2
    PW:keins
    viel spaß

    gepostet von: tko245! vielen Dank :)
     
  12. harry1980

    harry1980 W:O:A Metalhead

    Registriert seit:
    03. November 2003
    Beiträge:
    3.968
    Zustimmungen:
    65
    ja,das werden die bestimmt wieder so übernehmen.2004 hat Guido Weiss(dreht häufig für Rockpalast) ja auch schon die DVD gedreht. Und dann kommt jedenfalls auch was vernünftiges dabei raus.
     
  13. MetalSmily

    MetalSmily W:O:A Metalhead

    Registriert seit:
    10. Mai 2009
    Beiträge:
    338
    Zustimmungen:
    0
  14. Bikerin666

    Bikerin666 W:O:A Metalhead

    Registriert seit:
    12. August 2008
    Beiträge:
    1.148
    Zustimmungen:
    0
    Also, ich hab die 2 Std aufgenommen und könnte brennen, wenn jemand Interesse hat ;)
     
  15. zignec

    zignec W:O:A Metalhead

    Registriert seit:
    27. Juli 2008
    Beiträge:
    363
    Zustimmungen:
    1
    Rapidshare macht keinen Spaß als Free user :/
     

Diese Seite empfehlen